Bratz French DvdRip XviD-iDNom:

Bratz French DvdRip XviD-iD

Catégorie: DVD-Rip
Uploadeur: Ayoulba
Hash Info: 6f78082da4941987497f8d738ff3135432895fda
Remerciements: 6 Voir
Partager:
Taille: 701.3 Mb
Date: 02 septembre 2009 � 02:05
Infos Tracker: 5 Seeders - 2 Leechers - 19113 fois completé

Télécharger

1251819701120.jpg

Origine du film : USA
Réalisateurs : Sean McNamara
Acteurs : Nathalia Ramos, Logan Browning, Janel Parrish
Genre : Comédie
Titre original : Bratz: The Movie
Durée : 1h40min
Date de sortie DVD : 03 Septembre 2009
Année de production : 2007
Distribution : Momentum Pictures

Inséparables depuis leur tendre enfance, les adolescentes Yasmin, Jade, Sasha et Cloe entrent ensemble à l’école secondaire Carry Nation High. Elles y découvrent un univers asphyxiant, cloisonné en différentes cliques et sous la coupe de l’insupportable Meredith, la fille du directeur de l’école. Petit à petit, les chemins des filles se séparent, chacune étant poussée vers un talent particulier: le chant pour Yasmin, les sciences et la mode pour Jade, la danse pour Sasha et le soccer pour Cloe. Deux années plus tard, alors qu’elles ne se parlent quasiment plus, un concours artistique doté d’une importante bourse d’études les réunit à nouveau.

thumbs20090901190952.jpg


Bratz.French.DvdRip.XviD-iD

General
Complete name : Bratz
Format : AVI
Format/Info : Audio Video Interleave
File size : 701 MiB
Duration : 1h 40mn
Overall bit rate : 970 Kbps
Writing application : Nandub v1.0rc2
Writing library : Nandub build 1852/release

Video
Format : MPEG-4 Visual
Format profile : Streaming Video@L1
Format settings, BVOP : Yes
Format settings, QPel : No
Format settings, GMC : No warppoints
Format settings, Matrix : Default (H.263)
Codec ID : XVID
Codec ID/Hint : XviD
Duration : 1h 40mn
Bit rate : 825 Kbps
Width : 640 pixels
Height : 272 pixels
Display aspect ratio : 2.35
Frame rate : 23.976 fps
Original frame rate : 25.000 fps
Resolution : 24 bits
Colorimetry : 4:2:0
Scan type : Progressive
Bits/(Pixel*Frame) : 0.198
Stream size : 596 MiB (85%)
Writing library : XviD 1.1.2 (UTC 2006-11-01)

Audio
Format : MPEG Audio
Format version : Version 1
Format profile : Layer 3
Codec ID : 55
Codec ID/Hint : MP3
Duration : 1h 40mn
Bit rate mode : Variable
Bit rate : 132 Kbps
Nominal bit rate : 130 Kbps
Channel(s) : 2 channels
Sampling rate : 48.0 KHz
Resolution : 16 bits
Video delay : 144ms
Stream size : 95.5 MiB (14%)
Alignment : Aligned on interleaves
Interleave, duration : 24 ms (0.58 video frame)
Interleave, preload duration : 748 ms
Writing library : LAME3.90.
Encoding settings : ABR[/b][/size]

6 personnes ont remercié l'uploadeur pour ce Torrent :

abiela, sarahmaude, serenalol, eddy93, apple76, pat5075

Remercier

Signaler un bogue
Nom d'utilisateur :
Mot de passe :
Se souvenir de moi?
Mot de passe oublié?
Nom d'utilisateur :
Adresse Email :
Mot de passe :
Confirmer Mot de passe :
Accepter les conditions d'utilisation

Adresse Email:  
Ce formulaire nous est utile pour trouver des bogues et des problèmes au sein de notre site.
Titre :
Description :